#TITLE:不爱拉倒;
#SUBTITLE:;
#ARTIST:胡灵;
#TITLETRANSLIT:;
#SUBTITLETRANSLIT:;
#ARTISTTRANSLIT:;
#CREDIT:;
#BANNER:-LOGO.jpg;
#BACKGROUND:.jpg;
#LYRICSPATH:;
#CDTITLE:Lan.png;
#MUSIC:.mp3;
#OFFSET:-0.040;
#SAMPLESTART:100.000;
#SAMPLELENGTH:12.000;
#SELECTABLE:YES;
#BPMS:0.000=162.030;
#STOPS:;
#BGCHANGES:;
// cache tags:
#FIRSTBEAT:12.000;
#LASTBEAT:358.000;
#SONGFILENAME:Songs/Super Dancer Online/buailadao/.sm;
#HASMUSIC:1;
#HASBANNER:1;
#MUSICLENGTH:133.709;
// end cache tags

//---------------dance-single - sky----------------
#NOTES:
     dance-single:
     sky:
     Hard:
     10:
     1.000,1.000,1.000,0.194,0.767,798.000,251.000,26.000,0.000,25.000:

0000
0000
0000
0000
,
0000
0000
0000
0000
,
0000
0000
0000
0000
,
0110
0000
0010
1100
0000
1001
0010
0000
,
1010
0000
0100
0011
0000
0101
0010
0000
,
1001
0000
0100
0110
0000
1010
0001
0000
,
0011
0000
0100
1010
0000
0101
0010
0000
,
1001
0000
0100
0011
0000
0110
1000
0000
,
0101
0000
0010
1100
0000
0011
0100
0000
,
1010
0000
0100
0011
0000
1001
0100
0000
,
1100
0000
1100
0001
0100
0010
0110
0000
,
1001
0000
0110
1001
0000
1010
0001
0000
,
0101
0000
1100
0010
1000
0100
0011
0000
,
1100
0000
0101
1010
0000
0110
0001
0000
,
0101
0000
0110
0001
1000
0100
0011
0000
,
1100
0000
1001
0110
0000
1010
0100
0000
,
1010
0000
0110
0001
0100
0010
1001
0000
,
2000
0000
0000
0000
0001
0000
0110
0000
0100
0010
0001
0000
3001
0010
0100
0000
,
1000
0010
0100
0001
1000
0010
0100
0001
1000
0010
0100
0001
1000
0010
0100
0001
,
1000
0010
0100
0001
1000
0010
0100
0001
1000
0010
0100
0001
1000
0010
0100
0001
,
0100
0001
1000
0010
0100
0001
1000
0010
0100
0001
1000
0010
0100
0001
1000
0010
,
0001
0100
1000
0010
0001
0100
1000
0010
0001
0100
1000
0010
0001
0100
1000
0010
,
0100
0010
1000
0001
0100
0010
1000
0001
0100
0010
1000
0001
0100
0010
1000
0001
,
1000
0010
0100
0001
1000
0010
0100
0001
1000
0010
0100
0001
1000
0010
0100
0001
,
0010
0001
0100
1000
0010
0001
0100
1000
0010
0001
0100
1000
0010
0001
0100
1000
,
0011
0000
0110
1000
0000
0011
0101
1001
,
0110
0000
0100
0010
0001
1000
0010
0100
,
0001
0100
1000
0010
0100
0001
0010
1000
,
0100
0010
1000
0100
0001
1000
0010
0100
,
0001
0000
0010
0000
1000
0000
0010
0000
0100
0000
0001
0000
1000
0100
0010
0000
,
0110
1010
0101
0011
1100
0101
1010
0110
,
1001
1100
0011
1010
0101
0110
1001
0101
,
0110
1010
0101
0011
1100
0101
1010
0110
,
1001
1100
0011
1010
0101
0110
1001
0101
,
0110
1000
0100
0001
1010
0100
1000
0010
,
0101
0010
1000
0001
0110
0001
0010
0001
,
1100
0010
0100
0001
0110
1000
0001
0010
,
0101
0010
1000
0001
1010
0100
0001
0010
,
1001
0011
0101
0011
1001
1100
1010
1100
,
1001
0110
0101
0110
1001
1010
0110
1010
,
1001
0101
0011
0101
1001
0110
1100
0110
,
0011
0000
0110
0000
1100
0000
0101
0000
1010
0000
1001
0000
1100
0100
0110
0000
,
1000
0010
0100
0001
1000
0010
0100
0001
1000
0010
0100
0001
1000
0010
0100
0001
,
1000
0010
0100
0001
1000
0010
0100
0001
1000
0010
0100
0001
1000
0010
0100
0001
,
0100
0001
1000
0010
0100
0001
1000
0010
0100
0001
1000
0010
0100
0001
1000
0010
,
0001
0100
1000
0010
0001
0100
1000
0010
0001
0100
1000
0010
0001
0100
1000
0010
,
0100
0010
1000
0001
0100
0010
1000
0001
0100
0010
1000
0001
0100
0010
1000
0001
,
1000
0010
0100
0001
1000
0010
0100
0001
1000
0010
0100
0001
1000
0010
0100
0001
,
0010
0001
0100
1000
0010
0001
0100
1000
0010
0001
0100
1000
0010
0001
0100
1000
,
0011
0000
0110
1000
0000
0000
0000
0000
,
0002
0020
0200
1000
,
2333
0000
0200
0001
0000
3302
0000
0000
,
2003
0200
0020
0001
,
3332
0000
0020
0100
0000
2033
0000
0000
,
3002
0020
0200
1000
,
2333
0000
0200
0001
0000
3302
0000
0000
,
2003
0200
0020
0001
,
3332
0000
0020
0100
0000
2033
0000
0000
,
3110
0100
1000
0100
0001
0110
1000
0101
,
0011
0100
0001
0010
0100
1001
0100
1010
,
1100
0010
0100
0001
1000
0011
0100
0110
,
1001
0010
0100
0001
0100
1100
0010
1001
,
0110
1010
0101
0011
1100
0101
1010
0110
,
1001
1100
0011
1010
0101
0110
1001
0101
,
0110
1010
0101
0011
1100
0101
1010
0110
,
1001
1100
0011
1010
0101
0110
1001
0101
,
0110
1000
0100
0001
1010
0100
1000
0010
,
0101
0010
1000
0001
0110
0001
0010
0001
,
1100
0010
0100
0001
0110
1000
0001
0010
,
0101
0010
1000
0001
1010
0100
0001
0010
,
1001
0011
0101
0011
1001
1100
1010
1100
,
1001
0110
0101
0110
1001
1010
0110
1010
,
1001
0101
0011
0101
1001
0110
1100
0110
,
0011
0000
0110
0000
1100
0000
0101
0000
1010
0000
1001
0000
1100
0100
0110
0000
,
1000
0010
0100
0001
1000
0010
0100
0001
1000
0010
0100
0001
1000
0010
0100
0001
,
1100
0010
0100
0001
1010
0010
1100
0001
1000
0010
0110
0001
1100
0010
0100
0001
,
0110
0001
1000
0010
1100
0001
1100
0010
0100
0001
1100
0010
0101
0001
1000
0010
,
0101
0100
1000
0010
0011
0100
1100
0010
0001
0100
1001
0010
0101
0100
1000
0010
,
0101
0010
1000
0001
0110
0010
1100
0001
0100
0010
1100
0001
0110
0010
1000
0001
,
1100
0010
0100
0001
1010
0010
1100
0001
1000
0010
1100
0001
1010
0010
0100
0001
,
1010
0000
0000
0000
0110
0010
0001
0000
0110
0100
1000
0000
0101
0000
0000
0000
,
1001
0000
0100
0011
0000
1100
0010
0000
,
1100
0010
0100
0001
0010
0001
0100
0010
1000
0010
0100
1000
0001
0100
0001
1000
,
0011
0100
0001
1000
0001
0010
1000
0100
1000
0001
0010
0100
1000
0010
0100
0001
,
1010
0100
0001
0010
1000
0010
0100
0010
1001
0100
1000
0001
0010
1000
0010
0100
,
0011
0100
0010
1000
0100
0001
0100
0010
1000
0001
0100
1000
0010
0001
0100
1000
,
0102
0000
0000
0000
,
0000
0000
0100
0000
0000
0010
0000
1000
,
0000
0000
1000
0100
0010
0100
1000
0100
0010
0100
1000
0100
0010
0100
1013
0000
,
0000
0000
0000
0111
1110
0000
0000
0000
;
